[Login] or [Signup]
Login
Username:
Password:
[Signup]
[Recover Account]


Poll


You must be logged in to view polls



Torrent Details For "Baazaar (2018) Hindi - 720p - PreDVDRip - x264 - 1.4GB - AAC - MovCr"

Baazaar (2018) Hindi - 720p - PreDVDRip - x264 - 1.4GB - AAC - MovCr

Download this torrent | Magnet Download
Health:
Seeds: 414
Leechers: 64
Completed: 11,724 
Last Checked: 16-11-2018 14:26:25
External Torrent
Update Stats
Download Magnet


Poster


iMDB
Title: Baazaar
Year: 2018
Runtime: 137 minutes
Votes: 173
Rating: 7.5/10
Director: Gauravv K. Chawla
Writing By: Aseem Arora,Aseem Arora,Parveez Sheikh,
Produced By: Monisha Advani,Nikkhil Advani,Mohan Bangera,Madhu Bhojwani,Hemraj Dogra,Karan Joshi,Ajay Kapoor,Satish Poddar,Ishan Saksena,Sunil Shah,Dheeraj Wadhawan,Rameshchandra Yadav,
Music: John Stewart Eduri
Cast:
Radhika Apte as Priya Rai
Saif Ali Khan as Shakun Kothari
Chitrangda Singh as Mandira Kothari
Manish Chaudhary as Rana Dasgupta
Rohan Vinod Mehra as Rizwan Ahmed
Mukesh Hariawala as Parekh
Denzil Smith as Kishore Wadhwa
Danish Husain as Dubey
Sai Gundewar as Suhas Sharma
Sonia Balani as Aamna Ahmed
Trailers:
Baazaar Trailer


Watch-Free-HD     Download

Details
Name:Baazaar (2018) Hindi - 720p - PreDVDRip - x264 - 1.4GB - AAC - MovCr
Description:
Baazaar (2018) Hindi - 720p - PreDVDRip - x264 - 1.4GB - AAC - MovCr


 http://movcr.cc



Video
ID : 1
Format : AVC
Format/Info : Advanced Video Codec
Format profile : [email protected]
Format settings : CABAC / 4 Ref Frames
Format settings, CABAC : Yes
Format settings, RefFrames : 4 frames
Codec ID : V_MPEG4/ISO/AVC
Duration : 2 h 14 min
Bit rate : 1 324 kb/s
Width : 1 280 pixels
Height : 544 pixels
Display aspect ratio : 2.35:1
Frame rate mode : Constant
Frame rate : 25.000 FPS
Color space : YUV
Chroma subsampling : 4:2:0
Bit depth : 8 bits
Scan type : Progressive
Bits/(Pixel*Frame) : 0.076
Stream size : 1.25 GiB (91%)
Title : www.MovCr.cc
Writing library : x264 core 155 r2901 7d0ff22
Encoding settings : cabac=1 / ref=1 / deblock=1:0:0 / analyse=0x3:0x113 / me=hex / subme=2 / psy=1 / psy_rd=1.00:0.00 / mixed_ref=0 / me_range=16 / chroma_me=1 / trellis=0 / 8x8dct=1 / cqm=0 / deadzone=21,11 / fast_pskip=1 / chroma_qp_offset=0 / threads=12 / lookahead_threads=4 / sliced_threads=0 / nr=0 / decimate=1 / interlaced=0 / bluray_compat=0 / constrained_intra=0 / bframes=3 / b_pyramid=2 / b_adapt=1 / b_bias=0 / direct=1 / weightb=1 / open_gop=0 / weightp=1 / keyint=250 / keyint_min=25 / scenecut=40 / intra_refresh=0 / rc_lookahead=10 / rc=abr / mbtree=1 / bitrate=1324 / ratetol=1.0 / qcomp=0.60 / qpmin=0 / qpmax=69 / qpstep=4 / vbv_maxrate=62500 / vbv_bufsize=78125 / nal_hrd=none / filler=0 / ip_ratio=1.40 / aq=1:1.00
Default : Yes
Forced : No
Color range : Limited
Color primaries : BT.601 PAL
Transfer characteristics : BT.709
Matrix coefficients : BT.601

Audio
ID : 2
Format : AAC LC
Format/Info : Advanced Audio Codec Low Complexity
Codec ID : A_AAC-2
Duration : 2 h 14 min
Bit rate : 128 kb/s
Channel(s) : 2 channels
Channel layout : L R
Sampling rate : 48.0 kHz
Frame rate : 46.875 FPS (1024 SPF)
Compression mode : Lossy
Delay relative to video : -21 ms
Stream size : 123 MiB (9%)
Title : www.MovCr.cc
Language : Hindi
Default : Yes
Forced : No





Category:Movies > Bollywood
Lang:Hindi
Total Size:1.37 GB
Info Hash:ef699c2bb3bb660a34b9d4e32fca87f43333acaa
Added By:MAZE
Date Added:27-10-2018 14:02:41
Views:7,975
Hits:750

Download Torrent

Ratings:Not Yet Rated (Log in to rate it)


Tracker:
http://retracker.mgts.by:80/announce

This Torrent also has backup trackers
URLSeedersLeechersCompleted
http://retracker.mgts.by:80/announce3181,440
http://retracker.telecom.by:80/announce000
http://t.nyaatracker.com:80/announce830
http://tracker.city9x.com:2710/announce262156
http://tracker.electro-torrent.pl:80/announce375270


File List: 


Comments

No comments still posted

Powered by 10 Hamsters v2-svn -|- Page Generated In 0.771368 secs.
-|- RSS FEED
Theme By: Nikkbu
Watch Movie | Seigai no Majo | The Last Summoner